Jhootha Kahin Ka 2019 Bollywood Full Movie Dawnload 720p

Jhootha Kahin Ka 2019 Bollywood Full Movie Dawnload 720p

Complete name : Jhootha Kahin Ka 2019 Bollywood Movie
Format : MPEG-4
Format profile : Base Media
Codec ID : isom (isom/iso2/avc1/mp42)
File size : 796 MiB
Duration : 2 h 36 min
Overall bit rate : 713 kb/s
Writing application : Lavf55.33.100

Video
Format : AVC
Format/Info : Advanced Video Codec
Format profile : High@L4.1
Format settings, CABAC : Yes
Format settings, RefFrames : 4 frames
Codec ID : avc1
Codec ID/Info : Advanced Video Coding
Duration : 2 h 36 min
Bit rate : 512 kb/s
Width : 720 pixels
Height : 310 pixels
Display aspect ratio : 2.35:1
Frame rate mode : Constant
Frame rate : 25.000 FPS
Color space : YUV

Chroma subsampling : 4:2:0
Bit depth : 8 bits
Scan type : Progressive
Bits/(Pixel*Frame) : 0.092
Stream size : 574 MiB (72%)
Writing library : x264 core 132

Audio
Format : AAC
Format/Info : Advanced Audio Codec
Format profile : LC
Codec ID : 40
Duration : 2 h 36 min
Bit rate mode : Constant
Bit rate : 192 kb/s
Channel(s) : 2 channels
Channel positions : Front: L R
Sampling rate : 44.1 kHz
Frame rate : 43.066 FPS (1024 SPF)
Compression mode : Lossy
Stream size : 215 MiB (27%)
Default : Yes

Story lineFree Download Pc 720p 480p Movies Download, 720p Bollywood Movies Download, 720p Hollywood Hindi Dubbed Movies Download, 720p 480p South Indian Hindi Dubbed Movies Download, Hollywood Bollywood Hollywood Hindi 720p Movies Download, Bollywood 720p Pc Movies Download 700mb 720p webhd  free download or world4ufree 9xmovies South Hindi Dubbad 720p Bollywood 720p DVDRip Dual Audio 720p Holly English 720p HEVC 720p Hollywood Dub 1080p Punjabi Movies South Dubbed 300mb Movies High Definition Quality (Bluray 720p 1080p 300MB MKV and Full HD Movies or watch online at 7StarHD.com.




Source link

Leave a Reply

Your email address will not be published. Required fields are marked *

*

www.000webhost.com